Wallpaper-Forum
Đăng ký để có nhìu quyền lợi!!!

Wallpaper-Forum

Web: http://www.wallpaper-web.tk
 
Trang ChínhTrang Chính  CalendarCalendar  Trợ giúpTrợ giúp  Tìm kiếmTìm kiếm  Thành viênThành viên  NhómNhóm  Đăng kýĐăng ký  Đăng NhậpĐăng Nhập  

News & Announcements
Đăng Nhập
Tên truy cập:
Mật khẩu:
Ghi nhớ đăng nhập:

Message :
Signature :
Background :
[Vietsub] Paul 2011 - Cuộc Phưu Lưu Của Người Ngoài Hành TinhXem chủ đề cũ hơn Xem chủ đề mới hơn Go down

 Xem thêm các bài viết khác cùng chuyên mục

-
Fri Jun 10, 2011 11:24 pm
avatar
Thành Viên: -nhoxkia1991 
 
Thông Tin nhoxkia1991 Posts : 300
Points : 948
Thanked : 34
Age : 26
Đến từ : Hồ Chí Minh
Huy Chương : [table border="1" bgcolor=white align=center]
[tr]
[td]

[/td]
[/tr]
[/table]

Bài gửiTiêu đề: [Vietsub] Paul 2011 - Cuộc Phưu Lưu Của Người Ngoài Hành Tinh
Xem lý lịch thành viên http://wallpaper-web.tk

Nguồn : http://kipham.forumn.org/t65-topic

Tiêu Đề : [Vietsub] Paul 2011 - Cuộc Phưu Lưu Của Người Ngoài Hành Tinh


--------------------------------------------------
Paul 2011
Cuộc Phưu Lưu Của Người Ngoài Hành Tinh

Encode by Mr.Ninhacc






Trailer
[You must be registered and logged in to see this link.]

IMDb
[You must be registered and logged in to see this link.]

INFO

Spoiler:
 

Media Info
Code:

P.a.u.l.2011.Extended.720p.AC-3.x264 - Mr.Ninhacc.mkv
Format                          : Matroska
File size                        : 1.29 GiB
Duration                        : 1h 49mn
Overall bit rate                : 1 692 Kbps
Encoded date                    : UTC 2011-06-09 01:51:00
Writing application              : mkvmerge v4.5.0 ('Speed of Light') built on Feb  1 2011 02:10:32
Writing library                  : libebml v1.2.0 + libmatroska v1.1.0

Video
ID                              : 1
Format                          : AVC
Format/Info                      : Advanced Video Codec
Format profile                  : High@L4.1
Format settings, CABAC          : Yes
Format settings, ReFrames        : 3 frames
Muxing mode                      : Header stripping
Codec ID                        : V_MPEG4/ISO/AVC
Duration                        : 1h 49mn
Bit rate                        : 1 500 Kbps
Width                            : 1 280 pixels
Height                          : 544 pixels
Display aspect ratio            : 2.35:1
Original display aspect ratio    : 2.35:1
Frame rate                      : 23.976 fps
Color space                      : YUV
Chroma subsampling              : 4:2:0
Bit depth                        : 8 bits
Scan type                        : Progressive
Bits/(Pixel*Frame)              : 0.090
Stream size                      : 1.12 GiB (87%)

Audio
ID                              : 2[left]
Format                          : AC-3
Format/Info                      : Audio Coding 3
Mode extension                  : CM (complete main)
Muxing mode                      : Header stripping
Codec ID                        : A_AC3
Duration                        : 1h 49mn
Bit rate mode                    : Constant
Bit rate                        : 192 Kbps
Channel(s)                      : 6 channels
Channel positions                : Front: L C R, Side: L R, LFE
Sampling rate                    : 48.0 KHz
Bit depth                        : 16 bits
Compression mode                : Lossy
Stream size                      : 150 MiB (11%)
Nội Dung
Cặp đôi Simon Pegg và Nick Frost (từng đóng phim Hot Fuzz và Shaun of the Dead) lại một lần nữa tái ngộ trong bộ phim hài phiêu lưu Paul, kể câu chuyện khi họ tình cờ đi vào vùng trung tâm UFO của Hoa Kỳ. Ở đây, họ đã gặp gỡ một người ngoài hành tinh tên Paul.

Trong 60 năm qua, Paul (Seth Rogen ***g tiếng) đã nắm giữ một bí mật quân sự cực kỳ quan trọng. Vì một lý do nào đó, Paul đã quyết định trốn thoát khỏi khu vực UFO của chính phủ Hoa Kỳ và lên một chiếc xe bất kỳ để trốn khỏi thị trấn này, tình cờ lại là chiếc RV đi thuê của cặp đôi Graeme Willy (Pegg) và Clive Gollings (Frost). Bị các đặc vụ liên bang truy đuổi, Graeme and Clive đã phải lập nên một kế hoạch trốn chạy để đưa Paul trở về phi thuyền mẹ ngoài không gian. Và từ đây mọi chuyện trở nên rắc rối hơn.
















Dung Lượng 1.29GB| 6 Part 200MB | 1 Part 122MB
[You must be registered and logged in to see this link.]
Pass Join: Mr.Ninhacc


Sub Việt
[You must be registered and logged in to see this link.]


nguồn: vn-zoom.com
Chữ ký của nhoxkia1991



Web: [You must be registered and logged in to see this link.]





[Vietsub] Paul 2011 - Cuộc Phưu Lưu Của Người Ngoài Hành Tinh

Xem chủ đề cũ hơn Xem chủ đề mới hơn Về Đầu Trang
Trang 1 trong tổng số 1 trang
* Viết tiếng Việt có dấu, là tôn trọng người đọc.* Chia sẻ bài sưu tầm có ghi rõ nguồn, là tôn trọng người viết.* Thực hiện những điều trên, là tôn trọng chính mình.
-Nếu chèn smilies có vấn đề thì bấm A/a trên phải khung viết bài
Permissions in this forum:Bạn không có quyền trả lời bài viết
Wallpaper-Forum :: Giải trí :: Download Phim :: Chiến tranh / Viễn tưởng-
Free forum | Khoa học | Trường | © phpBB | Free forum support | Liên hệ | Report an abuse | Create a free blog