Wallpaper-Forum
Đăng ký để có nhìu quyền lợi!!!

Wallpaper-Forum

Web: http://www.wallpaper-web.tk
 
Trang ChínhTrang Chính  CalendarCalendar  Trợ giúpTrợ giúp  Tìm kiếmTìm kiếm  Thành viênThành viên  NhómNhóm  Đăng kýĐăng ký  Đăng NhậpĐăng Nhập  

News & Announcements
Đăng Nhập
Tên truy cập:
Mật khẩu:
Ghi nhớ đăng nhập:

Message :
Signature :
Background :
[MF/Phụ Đề Việt] Reservoir Dogs - Tập Đoàn Tội Phạm (1992) | m576p BluRay AC3 x264-MoCk [1,06GB]Xem chủ đề cũ hơn Xem chủ đề mới hơn Go down

 Xem thêm các bài viết khác cùng chuyên mục

-
Fri Jun 03, 2011 12:33 pm
avatar
Thành Viên: -nhoxkia1991 
 
Thông Tin nhoxkia1991 Posts : 300
Points : 948
Thanked : 34
Age : 25
Đến từ : Hồ Chí Minh
Huy Chương : [table border="1" bgcolor=white align=center]
[tr]
[td]

[/td]
[/tr]
[/table]

Bài gửiTiêu đề: [MF/Phụ Đề Việt] Reservoir Dogs - Tập Đoàn Tội Phạm (1992) | m576p BluRay AC3 x264-MoCk [1,06GB]
Xem lý lịch thành viên http://wallpaper-web.tk

Nguồn : http://kipham.forumn.org/t42-topic

Tiêu Đề : [MF/Phụ Đề Việt] Reservoir Dogs - Tập Đoàn Tội Phạm (1992) | m576p BluRay AC3 x264-MoCk [1,06GB]


--------------------------------------------------
Reservoir Dogs (1992)



IMDB: [You must be registered and logged in to see this link.]

Code:
Format                          : Matroska
File size                        : 1.04 GiB
Duration                        : 1h 39mn
Overall bit rate                : 1 495 Kbps
Encoded date                    : UTC 2011-06-02 22:14:54
Writing application              : mkvmerge v4.4.0 ('Die Wiederkehr') built on Oct 31 2010 21:52:48
Writing library                  : libebml v1.0.0 + libmatroska v1.0.0

Video
ID                              : 1
Format                          : AVC
Format/Info                      : Advanced Video Codec
Format profile                  : High@L4.1
Format settings, CABAC          : Yes
Format settings, ReFrames        : 8 frames
Format settings, GOP            : M=5, N=57
Muxing mode                      : Header stripping
Codec ID                        : V_MPEG4/ISO/AVC
Duration                        : 1h 39mn
Bit rate                        : 1 334 Kbps
Width                            : 1 024 pixels
Height                          : 436 pixels
Display aspect ratio            : 2.35:1
Frame rate                      : 23.976 fps
Color space                      : YUV
Chroma subsampling              : 4:2:0
Bit depth                        : 8 bits
Scan type                        : Progressive
Bits/(Pixel*Frame)              : 0.125
Stream size                      : 926 MiB (87%)
Writing library                  : x264 core 114 r1924 08d04a4
Language                        : English

Audio
ID                              : 4
Format                          : AC-3
Format/Info                      : Audio Coding 3
Mode extension                  : CM (complete main)
Muxing mode                      : Header stripping
Codec ID                        : A_AC3
Duration                        : 1h 39mn
Bit rate mode                    : Constant
Bit rate                        : 160 Kbps
Channel(s)                      : 6 channels
Channel positions                : Front: L C R, Side: L R, LFE
Sampling rate                    : 48.0 KHz
Bit depth                        : 16 bits
Compression mode                : Lossy
Stream size                      : 113 MiB (11%)
Language                        : English

Text #1
ID                              : 2
Format                          : UTF-8
Codec ID                        : S_TEXT/UTF8
Codec ID/Info                    : UTF-8 Plain Text
Language                        : [COLOR="red"]Vietnamese[/COLOR]

Text #2
ID                              : 3
Format                          : UTF-8
Codec ID                        : S_TEXT/UTF8
Codec ID/Info                    : UTF-8 Plain Text
Language                        : English

[You must be registered and logged in to see this link.]



Spoiler:
 


Spoiler:
 





Click here

mockingbirdreal@vn-zoom


Nguồn: vn-zoom.com
Chữ ký của nhoxkia1991



Web: [You must be registered and logged in to see this link.]





[MF/Phụ Đề Việt] Reservoir Dogs - Tập Đoàn Tội Phạm (1992) | m576p BluRay AC3 x264-MoCk [1,06GB]

Xem chủ đề cũ hơn Xem chủ đề mới hơn Về Đầu Trang
Trang 1 trong tổng số 1 trang
* Viết tiếng Việt có dấu, là tôn trọng người đọc.* Chia sẻ bài sưu tầm có ghi rõ nguồn, là tôn trọng người viết.* Thực hiện những điều trên, là tôn trọng chính mình.
-Nếu chèn smilies có vấn đề thì bấm A/a trên phải khung viết bài
Permissions in this forum:Bạn không có quyền trả lời bài viết
Wallpaper-Forum :: Giải trí :: Download Phim :: Hành động-
Free forum | © phpBB | Free forum support | Liên hệ | Report an abuse | Free blog